العودة   مركز بوابة العرب التعليمي > منتديات البرامج والانترنت > منتدى البرامج

إضافة رد
 
أدوات الموضوع
  #1  
قديم 14-10-2004, 04:43 AM
الصورة الرمزية ابن مسعود7
ابن مسعود7 ابن مسعود7 غير متواجد حالياً

حاصل على شهادة تقدير
 
تاريخ التسجيل: Nov 2002
المشاركات: 17,856
Lightbulb ---== طريقه عمل ملفات cue ==--






السلام عليكم


أولا أشكر الاخ Kimo4u2000 الذى دلنى على هذه الطريقه

==============

عند تحميل صوره السى دى CD image

ممكن أن تكون على أكثر من إمتداد

مثل iso أو Bin+cue

وهناك إمتدادات أخرى لا مجال لذكرها حاليا

وكما تلاحظ الامتداد bin مرتبط ويجب أن يكون معه ملف أخر بنفس الاسم وإمتداده cue

ولكى تحرق هذا الامتداد bin يجب توفر ملف ال cue

فإن لم يتوفر أو لم تستطع تحميله يمكنك عمله بإتباع الخطوات التاليه :

إفتح أى محرر نصوص والافضل ال notepad

أكتب بها الاتى


============

FILE“name-of-image“BINARY
TRACK 01 MODE1/2352
INDEX 01 00:00:00

===========

حيث تستبدل name-of-image بإسم الملف للإمتداد bin

مثلا لو كان هذا ال image لبرنامج ال photoimpact 10

فسيكون الملف الاول هو photoimpact 10.bin

وعليه تكتب مكان name-of-image نفس الاسم photoimpact 10

ثم تحفظ الملف بنفس الاسم لملف ال bin

ثم تغير الامتداد إلى cue

وسيكون فى حالتنا هذه photoimpact 10.cue

ثم تضع ملف ال cue هذا مع ملف ال bin بنفس المجلد

وبعدها يمكنك حرق هذه الصوره للسى دى أو وضعها على سواقه الاقراص الوهميه



========

تحديث 19 فبراير 2009

هذا ملف لعمل الملفات ال cue دون الحاجة الى تركيبه على جهازك

كود:
http://www.warezfaq.com/fleas/Lior%27s_Cue_Maker_2.4.zip
وهذا لو رغبت بتركيبه كبرنامج

كود:
http://www.warezfaq.com/fleas/Lior%27s_Cue_Maker_2.4_Setup.zip
__________________

ومن احسن قولا ممن دعا الى الله و عمل صالحا وقال اننى من المسلمين

إذا اردت أن تعرف عند الله مقامك فأنظر فيما أقامك

رد مع اقتباس
  #2  
قديم 14-10-2004, 06:14 AM
الرمان الاحمر الرمان الاحمر غير متواجد حالياً
 
تاريخ التسجيل: Apr 2001
المشاركات: 9,187
افتراضي

يعطيك العافية اخوي ابن مسعود7 على هالمعلومات القيمة
__________________
رد مع اقتباس
  #3  
قديم 14-10-2004, 06:35 AM
سيما سيما غير متواجد حالياً
 
تاريخ التسجيل: Jul 2003
المشاركات: 356
افتراضي

مشكوور

وجزاك الله كل خير
رد مع اقتباس
  #4  
قديم 14-10-2004, 07:06 AM
AHZE AHZE غير متواجد حالياً
 
تاريخ التسجيل: Oct 2002
المشاركات: 637
افتراضي

شكرا و معلومة مفيدة جدا
رد مع اقتباس
  #5  
قديم 14-10-2004, 09:30 AM
الصورة الرمزية بو بشار
بو بشار بو بشار غير متواجد حالياً
 
تاريخ التسجيل: May 2002
المشاركات: 6,971
افتراضي

الف شكر لك اخى الفاضل بن مسعود على هذه المعلومات القيمه

تحياتى للجميع
__________________
رد مع اقتباس
  #6  
قديم 15-10-2004, 06:15 AM
الصورة الرمزية ابن مسعود7
ابن مسعود7 ابن مسعود7 غير متواجد حالياً

حاصل على شهادة تقدير
 
تاريخ التسجيل: Nov 2002
المشاركات: 17,856
افتراضي


الشكر لكم جميعا

بارك الله فيكم
__________________

ومن احسن قولا ممن دعا الى الله و عمل صالحا وقال اننى من المسلمين

إذا اردت أن تعرف عند الله مقامك فأنظر فيما أقامك

رد مع اقتباس
  #7  
قديم 15-10-2004, 06:30 AM
الباحث الباحث غير متواجد حالياً
 
تاريخ التسجيل: Dec 2000
المشاركات: 246
افتراضي

السلام عليكم
بارك الله فيك وحرم الله وجهك عن النار ..
رد مع اقتباس
  #8  
قديم 17-10-2004, 05:33 AM
الصورة الرمزية ابن مسعود7
ابن مسعود7 ابن مسعود7 غير متواجد حالياً

حاصل على شهادة تقدير
 
تاريخ التسجيل: Nov 2002
المشاركات: 17,856
افتراضي

واياك بارك اخى الباحث وشكرا لك
__________________

ومن احسن قولا ممن دعا الى الله و عمل صالحا وقال اننى من المسلمين

إذا اردت أن تعرف عند الله مقامك فأنظر فيما أقامك

رد مع اقتباس
  #9  
قديم 17-10-2004, 06:24 AM
عـــاشق عـــاشق غير متواجد حالياً
 
تاريخ التسجيل: Jul 2002
المشاركات: 2,803
افتراضي

شكرا اخي ابن مسعود

اسم ملف bin
No.Mans.Land-iMMERSiON-CD1.bin

كتبت في المفكرة
FILE“No.Mans.Land-iMMERSiON-CD2“BINARY
TRACK 01 MODE1/2352
INDEX 01 00:00:00

وحفظة بصيغة cue بحيث يصبح اسم الملف
No.Mans.Land-iMMERSiON-CD1.cue
وحجمه 1 كيلوبايت

ولكن عند تشغيله بواسطة النيرو تخرج هذه الرسالة
an error occurred while loding the cue sheet file
'C:\My Documents\eDonkey2000 Downloads\No.Mans.Land-iMMERSiON-CD2.cue.
(line1). ::25::


بالتوفيق
رد مع اقتباس
  #10  
قديم 17-10-2004, 12:07 PM
أبو حليمة أبو حليمة غير متواجد حالياً
 
تاريخ التسجيل: Jan 2002
المشاركات: 62
افتراضي

أو بإمكانكم استخدام هذا البرنامج لعمل ملفات cue
الملف في المرفقات.
رد مع اقتباس
  #11  
قديم 17-10-2004, 05:58 PM
عـــاشق عـــاشق غير متواجد حالياً
 
تاريخ التسجيل: Jul 2002
المشاركات: 2,803
افتراضي

شكرا ابو حليمة

بالبرنامج 100%

تحياتي
رد مع اقتباس
  #12  
قديم 17-10-2004, 06:38 PM
الصورة الرمزية ابن مسعود7
ابن مسعود7 ابن مسعود7 غير متواجد حالياً

حاصل على شهادة تقدير
 
تاريخ التسجيل: Nov 2002
المشاركات: 17,856
افتراضي

ابو حليمه شكرا لك على الإضافه

عاشق انا جربت هذه الطريقه اكثر من مره بلا مشاكل

فقط تاكد ان ملفى الكيو والبن فى نفس المجلد
__________________

ومن احسن قولا ممن دعا الى الله و عمل صالحا وقال اننى من المسلمين

إذا اردت أن تعرف عند الله مقامك فأنظر فيما أقامك

رد مع اقتباس
  #13  
قديم 17-10-2004, 09:46 PM
الصورة الرمزية بو بشار
بو بشار بو بشار غير متواجد حالياً
 
تاريخ التسجيل: May 2002
المشاركات: 6,971
افتراضي

الاخ عـــاشق
تجد الشرح هنا

http://www.afterdawn.com/guides/arch..._with_nero.cfm
__________________
رد مع اقتباس
  #14  
قديم 20-12-2004, 11:54 PM
الصورة الرمزية ابن مسعود7
ابن مسعود7 ابن مسعود7 غير متواجد حالياً

حاصل على شهادة تقدير
 
تاريخ التسجيل: Nov 2002
المشاركات: 17,856
افتراضي

يرفع للفائده
رد مع اقتباس
  #15  
قديم 09-05-2005, 07:17 AM
salama_971 salama_971 غير متواجد حالياً
 
تاريخ التسجيل: Jul 2002
المشاركات: 711
افتراضي

شرح رائع ومفيد بارك الله فيك....
رد مع اقتباس
  #16  
قديم 05-06-2005, 11:11 AM
الصورة الرمزية bufahad
bufahad bufahad غير متواجد حالياً
 
تاريخ التسجيل: Mar 2002
المشاركات: 9,216
افتراضي

جزاك الله خير
رد مع اقتباس
  #17  
قديم 12-07-2005, 02:58 PM
الصورة الرمزية samerbo
samerbo samerbo غير متواجد حالياً
 
تاريخ التسجيل: Sep 2003
المشاركات: 239
افتراضي

شكراً لكم جميعاً ,,,

تحياتي للجميع ,,
رد مع اقتباس
  #18  
قديم 12-07-2005, 03:25 PM
mohamaddw mohamaddw غير متواجد حالياً
حاصل على شهادة تقدير
 
تاريخ التسجيل: Feb 2002
المشاركات: 4,125
افتراضي

تسلم اخي الموضوع مهم وغاية في الاهمية
اتمنى لك التوفيق
رد مع اقتباس
  #19  
قديم 31-08-2005, 12:42 AM
saadoon1 saadoon1 غير متواجد حالياً
 
تاريخ التسجيل: Jun 2003
المشاركات: 51
افتراضي

مشكور أخوي ابن مسعود وبارك الله فيك
رد مع اقتباس
  #20  
قديم 01-10-2005, 03:42 PM
Anas966 Anas966 غير متواجد حالياً
حاصل على شهادة تقدير
 
تاريخ التسجيل: May 2004
المشاركات: 319
افتراضي

وجدت إضافة لهذا الدرس المهم وأنقلها من أحد المنتديات الأجنبية

For Movies:
كود:
FILE "FILNENAMEHERE.bin" BINARY 

TRACK 01 MODE2/2352 

INDEX 01 00:00:00 

TRACK 02 MODE2/2352 

INDEX 01 00:06:00

Video Games:

كود:
FILE "image-name.BIN" BINARY 

TRACK 1 MODE2/2352 

INDEX 1 00:00:00

CD-ROM GAMES/SOFTWARE:

كود:
FILE "image-name.BIN" BINARY 

TRACK 01 MODE1/2352 

INDEX 01 00:00:00
وكل الشكر والتقدير
رد مع اقتباس
إضافة رد

أدوات الموضوع

تعليمات المشاركة
لا تستطيع إضافة مواضيع جديدة
لا تستطيع الرد على المواضيع
لا تستطيع إرفاق ملفات
لا تستطيع تعديل مشاركاتك

BB code is متاحة
كود [IMG] متاحة
كود HTML معطلة

الانتقال السريع


الساعة الآن 02:52 PM.


جميع الحقوق محفوظة لشبكة بوابة العرب
New Page 4
 
 
Copyright © 2000-2017 ArabsGate. All rights reserved
To report any abuse on this website please contact abuse@arabsgate.com